#TITLE:Double Blade;
#SUBTITLE:Initiate;
#ARTIST:Jay Chou;
#TITLETRANSLIT:;
#SUBTITLETRANSLIT:;
#ARTISTTRANSLIT:;
#CREDIT:;
#BANNER:shuangdao-bn.png;
#BACKGROUND:;
#LYRICSPATH:;
#CDTITLE:cdtitle.png;
#MUSIC:shuangdao.ogg;
#OFFSET:0.060;
#SAMPLESTART:100.000;
#SAMPLELENGTH:12.000;
#SELECTABLE:YES;
#BPMS:0.000=104.000;
#STOPS:;
#BGCHANGES:;
// cache tags:
#FIRSTBEAT:0.000;
#LASTBEAT:203.500;
#SONGFILENAME:Songs/Initiate/shuangdao/shuangdao.sm;
#HASMUSIC:1;
#HASBANNER:1;
#MUSICLENGTH:117.089;
// end cache tags

//---------------dance-single - ----------------
#NOTES:
     dance-single:
     :
     Hard:
     9:
     1.000,1.000,1.000,0.905,0.991,596.000,201.000,106.000,0.000,71.000:
0010
0002
0000
0000
1000
0000
0003
2000
3201
0000
0000
0000
0001
0000
0000
0000
,
0000
0000
0001
0010
0000
0001
0010
0000
,
0000
0000
0000
0000
0010
0000
0000
0001
0010
0000
0000
0001
1000
0000
0000
0001
,
1000
0001
0001
1000
0001
0010
0001
0010
,
1000
0000
0010
0000
1001
0001
0010
0010
0011
1000
1000
1000
1001
0010
1001
0010
,
1001
1000
0001
0010
1010
0001
0011
1000
1312
0100
1023
0100
1001
0100
1030
0200
,
2311
0001
0010
0100
0011
0100
0001
0010
0100
0001
0010
0100
0001
0010
0100
0010
,
0101
0100
0010
0001
0110
0001
0010
0001
0110
0001
0100
0001
0110
0001
0010
0001
,
0110
0010
0001
0001
0101
0010
0010
0100
0101
0010
0100
0100
0011
0100
0010
0001
,
0110
0001
0010
0100
0101
0010
0101
0010
0101
0100
0010
0100
0110
0001
0010
0001
,
0101
0010
3100
0010
1001
0000
0012
0003
0021
0030
0210
2300
3102
0003
0210
2300
,
3012
0003
0201
0300
1001
0000
2001
3200
2310
3200
2301
3200
2310
3200
2301
3200
,
2310
3001
2000
3100
2001
3100
1020
0031
1200
0310
2001
3100
1020
0031
2010
3100
,
1001
0000
0100
0000
1020
0030
1001
0200
0311
1000
0211
2300
3101
0100
0100
0100
,
0120
0030
0020
0030
2001
3020
0231
0310
2100
3200
0321
2030
3201
0302
1023
0230
,
1301
0000
1020
0030
0102
0023
0231
2300
3201
0320
1032
0203
2301
3020
0231
2300
,
3121
0030
1002
0203
1320
0030
1020
0032
0213
2300
3201
0302
1023
0230
2301
3000
,
0201
0320
2031
3200
0321
0230
2301
3020
1230
0302
0213
2300
3001
0010
0100
0010
,
1000
0200
0000
0000
0000
0000
0000
0000
0000
0000
0000
0000
0000
0000
0000
0000
,
0000
0000
0000
0000
1310
0000
0100
0000
1010
0100
0010
1000
0101
0000
0010
0000
,
1010
0100
0001
1000
0110
0000
0001
0000
0101
0010
0100
1000
0101
0000
1000
0000
,
0101
0010
0100
0001
1010
0000
0100
0000
0101
0010
1000
0010
0101
0000
1000
0000
,
1100
0010
0001
0010
0101
0000
0001
0000
0011
0100
1000
0001
0110
0000
1000
0000
,
0101
0100
0001
0100
1001
0000
0100
0000
1001
0100
0010
0100
1010
0000
0100
0000
,
1100
0001
0010
0100
0011
0000
0100
0000
0011
1000
0100
0010
1100
0000
0001
0000
,
0101
0010
0100
0010
0101
0000
0010
0000
1010
0100
0010
0100
1010
0000
0100
0000
,
1001
0100
0010
0100
0101
0000
0010
0000
1001
0010
0100
0010
1010
0000
0200
0000
,
2301
0010
3000
0000
0002
0000
0100
0000
1010
0000
0000
0000
0110
0000
1000
0000
,
0110
0000
1103
0010
1100
0010
0100
0010
,
1100
0000
1100
0010
1100
0000
1100
0010
,
1100
0000
1100
0010
1100
0100
1000
0100
,
1100
0100
1000
0010
1100
0000
1000
0010
,
1100
0000
1000
0100
1100
0100
0010
0100
,
1100
0000
0010
0100
1100
0000
0100
1000
,
1100
0000
0000
0000
0110
0000
0010
0000
0000
0000
0100
0100
0000
0100
0100
1001
,
1001
0010
0010
0010
1010
1000
0001
1000
0110
0001
1000
0010
0101
1000
0001
0010
,
1100
0001
0100
0010
0101
1000
0010
1000
0110
0001
1000
0001
0110
1000
0121
0000
,
1000
0000
0101
0000
0131
0000
1000
0100
0011
1000
0010
0001
1100
0010
0100
1000
,
0011
0100
1000
0010
0101
0010
1000
0010
0101
0010
0001
1000
0110
0000
0110
0110
,
1001
0110
0110
0110
1001
0000
0001
1000
0110
0100
1000
0100
0011
1000
0100
1000
,
0011
0100
1000
0100
0011
0100
0001
0010
1100
0001
0010
1000
0101
0000
1201
0000
,
0010
0000
1310
0000
1010
0000
0101
1000
0011
0100
0001
0010
1100
0001
1000
0100
,
0011
1000
0001
0010
1100
0001
0100
1000
0011
1000
0010
0000
1001
1001
0110
1001
,
1001
0110
0000
1000
0000
0010
0100
0011
0000
0000
0010
1000
0100
0010
1000
0011
,
0100
0000
0010
0001
0010
0100
1000
0011
0100
0000
0001
0010
0100
1000
0100
1001
,
0010
0000
1000
0100
0010
0100
0001
1100
0010
0000
0010
0100
1000
0100
0010
0101
,
1000
0000
0010
0001
0100
1000
0100
0011
1000
0000
0100
1000
0101
1000
0101
1001
,
0101
1001
0101
0010
0100
0010
0100
1001
0010
0000
0100
0010
0100
0010
0100
1001
,
0100
0000
0010
0100
0010
0100
0010
1001
0100
0000
0010
0100
0010
0100
0010
1001
,
0100
0000
0010
0100
0010
0100
0010
1001
0010
0000
0100
0010
0200
0320
0230
0320
,
0230
0320
0230
2320
0000
3232
0000
0000
0000
0000
0000
0000
0000
0000
0303
0000
;
